Фильмы
Для мобильных
Сериалы
Софт
ТВ-Шоу, Спорт
Музыка
Мультфильмы
Книги/Журналы
Игры PC
Консольные
rss
   
Меню
 Главная страница  Форум  Рецензии  Правила  Мобильная версия  Как тут качать?  Как добавить торрент?  Добавить торрент

Реклама


Партнеры



Баблс / The Bubbles [01-26] (2014-2016) WEB-DL 1080p

Добавлен: 15.09.2016 в 22:19 | Комментариев: 0 | Скачиваний: 11 | Просмотров: 177
Скачать торрент Размер раздачи: 6.81 Gb Статус: проверено Размер торрента: 37.2Kb Название файла: BABLS-WEB-DL.10.torrent

Баблс / The Bubbles [01-26] (2014-2016) WEB-DL 1080p



Информация о фильме
Название: Приключения БАБЛС (The Bubbles)
Год выпуска: 2014-2016
Страна: Россия, студия "Небо"
Жанр: короткометражка, мультфильм, приключения, комедия, семейный
Продолжительность: 26 x ~ 00:07:00
Перевод: не требуется
Русские субтитры: нет

Режиссёр: Михаил Ершов
Сценарий: Михаил Ершов, Майк де Сев, Расселл Маркус

Роли озвучивали: Прохор Чеховский, Юрий Моляров, Диомид Виноградов, Ирина Киреева

Описание: Добро пожаловать в новый, фантастический и невероятный мир Баблс! Мир пузырей! Вы увидите приключения героев мультфильма — энергичного Марти, неуклюжего Профессора (Дядю) Фолдера, добродушной Майи, гениального Тена и большого и сильного Буль-Буля. В каждой серии герои пускаются в приключения, решают возникающие жизненные проблемы и просто веселятся!



Доп. информация:
Семпл

Файл
Формат: MKV
Качество: WEB-DL 1080p
Видео: MPEG4-AVC, High@L4, 1920x1080 (16:9), 24.000 fps, 4 932 kbps,
Аудио: 48 kHz, AC3 Dolby, 2/0 (L,R) ch, ~192.00 kbps avg
Субтитры: отсутствуют

MI

07. БАБЛС - Бутерброды. WEB-DL.1080p.-merci-.mkv
Format : Matroska
Format version : Version 2
File size : 258 MiB
Duration : 6mn 53s
Overall bit rate : 5 228 Kbps
Movie name : Приключения Баблс / 2014 / Россия / by - merci -
Encoded date : UTC 2014-10-01 10:37:59
Writing application : mkvmerge v5.8.0 ('No Sleep / Pillow') built on Sep 2 2012 15:37:04
Writing library : libebml v1.2.3 + libmatroska v1.3.0

Video
ID : 1
Format : AVC
Format/Info : Advanced Video Codec
Format profile : High@L4
Format settings, CABAC : Yes
Format settings, ReFrames : 2 frames
Codec ID : V_MPEG4/ISO/AVC
Duration : 6mn 53s
Bit rate : 4 932 Kbps
Width : 1 920 pixels
Height : 1 080 pixels
Display aspect ratio : 16:9
Frame rate mode : Constant
Frame rate : 24.000 fps
Color space : YUV
Chroma subsampling : 4:2:0
Bit depth : 8 bits
Scan type : Progressive
Bits/(Pixel*Frame) : 0.099
Stream size : 243 MiB (94%)
Title : 07. Бутерброды. 1080p.WEB-DL.x264.-merci
Language : Russian
Default : Yes
Forced : No
Color range : Limited
Color primaries : BT.709
Transfer characteristics : BT.709
Matrix coefficients : BT.709

Audio
ID : 2
Format : AC-3
Format/Info : Audio Coding 3
Mode extension : CM (complete main)
Format settings, Endianness : Big
Codec ID : A_AC3
Duration : 6mn 53s
Bit rate mode : Constant
Bit rate : 192 Kbps
Channel(s) : 2 channels
Channel positions : Front: L R
Sampling rate : 48.0 KHz
Frame rate : 31.250 fps (1536 spf)
Compression mode : Lossy
Delay relative to video : 8ms
Stream size : 9.47 MiB (4%)
Title : rus
Language : Russian
Default : Yes
Forced : No



Скриншоты:
[screens]

http://i74.fastpic.ru/big/2016/0225/ca/caf2be40b4d9f82915c5a23cf1c08bca.png
http://i74.fastpic.ru/big/2016/0225/f8/c490baa9bcb39c73798504cb1f90a2f8.png
http://i74.fastpic.ru/big/2016/0225/fd/fc99fff0d78351cf141aac426a2d0afd.png
http://i74.fastpic.ru/big/2016/0225/40/51a2e921125688b171d57ac11f7fd840.png
[/screens]

Раздел: Фильмы
Категории: Мультфильмы
Рейтинг 0.0/0

       :: Раздачи по теме
       :: Комментарии
Оставь свой отзыв!

Имя *:
Email *:
Код *:


Мы предоставляем вам возможность скачать Баблс / The Bubbles [01-26] (2014-2016) WEB-DL 1080p торрент, минуя процесс регистрации. Вам не придется прерывать закачку из-за длительности операции. Мы делаем все для того чтобы вы не тратили время на поиск нужного приложения по разным сайтам, в кратчайший срок оно окажется на вашем компьютере. Даже если у вас что-то не получится, отзывчивые и вежливые модераторы всегда придут на помощь. Обрадуйте Ваших друзей такой новостью. Они непременно оценят преимущества нашего проекта и станут полноценными пользователями сайта. Возвращаясь к нам за новыми фильмами, играми, – вы даете нам стимул наполнять сайт еще большим количеством ценного контента и радовать вас новинками.
Torrentk.Ru не содержит никакой нелегальной информации, только хеш-суммы файлов свободно доступных в сети. Владельцы сайта не могут нести ответственности за действия пользователей. Этот ресурс полностью анонимный - IP адреса и действия пользователей не сохраняются. Сайт не предоставляет электронные версии произведений, а занимается индексированием файлов, находящихся в файлообменных сетях, Все права на произведения принадлежат правообладателям. Если вы являетесь правообладателем произведения, проиндексированного нашей поисковой машиной и не желаете чтобы ссылка на него находилась в нашем каталоге, свяжитесь с нами через форму обратной связи и мы незамедлительно удалим её. Публикация материалов сайта возможна только с разрешения администрации.
Вход
Логин:
Пароль:

У нас на сайте


Категории
Игры на PSP

Реклама



Яндекс.Метрика